===========================================================================
Executing command line;
""C:\Program Files (x86)\Visions of Chaos\ffmpeg.exe" -i "C:\Users\Gebruiker\Documents\Visions of Chaos\Movies\VOC00003.MP4" "C:\Users\Gebruiker\Documents\Visions of Chaos\Movies\00000000\%05d.png""
===========================================================================

ffmpeg version 4.4-full_build-www.gyan.dev Copyright (c) 2000-2021 the FFmpeg developers
  built with gcc 10.2.0 (Rev6, Built by MSYS2 project)
  configuration: --enable-gpl --enable-version3 --enable-static --disable-w32threads --disable-autodetect --enable-fontconfig --enable-iconv --enable-gnutls --enable-libxml2 --enable-gmp --enable-lzma --enable-libsnappy --enable-zlib --enable-librist --enable-libsrt --enable-libssh --enable-libzmq --enable-avisynth --enable-libbluray --enable-libcaca --enable-sdl2 --enable-libdav1d --enable-libzvbi --enable-librav1e --enable-libsvtav1 --enable-libwebp --enable-libx264 --enable-libx265 --enable-libxvid --enable-libaom --enable-libopenjpeg --enable-libvpx --enable-libass --enable-frei0r --enable-libfreetype --enable-libfribidi --enable-libvidstab --enable-libvmaf --enable-libzimg --enable-amf --enable-cuda-llvm --enable-cuvid --enable-ffnvcodec --enable-nvdec --enable-nvenc --enable-d3d11va --enable-dxva2 --enable-libmfx --enable-libglslang --enable-vulkan --enable-opencl --enable-libcdio --enable-libgme --enable-libmodplug --enable-libopenmpt --enable-libopencore-amrwb --enable-libmp3lame --enable-libshine --enable-libtheora --enable-libtwolame --enable-libvo-amrwbenc --enable-libilbc --enable-libgsm --enable-libopencore-amrnb --enable-libopus --enable-libspeex --enable-libvorbis --enable-ladspa --enable-libbs2b --enable-libflite --enable-libmysofa --enable-librubberband --enable-libsoxr --enable-chromaprint
  libavutil      56. 70.100 / 56. 70.100
  libavcodec     58.134.100 / 58.134.100
  libavformat    58. 76.100 / 58. 76.100
  libavdevice    58. 13.100 / 58. 13.100
  libavfilter     7.110.100 /  7.110.100
  libswscale      5.  9.100 /  5.  9.100
  libswresample   3.  9.100 /  3.  9.100
  libpostproc    55.  9.100 / 55.  9.100
Input #0, mov,mp4,m4a,3gp,3g2,mj2, from 'C:\Users\Gebruiker\Documents\Visions of Chaos\Movies\VOC00003.MP4':
  Metadata:
    major_brand     : isom
    minor_version   : 512
    compatible_brands: isomiso2mp41
    encoder         : Lavf58.76.100
  Duration: 00:00:00.19, start: 0.000000, bitrate: 38217 kb/s
  Stream #0:0(und): Video: mpeg4 (Simple Profile) (mp4v / 0x7634706D), yuv420p, 512x512 [SAR 1:1 DAR 1:1], 42417 kb/s, 60 fps, 60 tbr, 15360 tbn, 60 tbc (default)
    Metadata:
      handler_name    : VideoHandler
      vendor_id       : [0][0][0][0]
  Stream #0:1(und): Audio: aac (LC) (mp4a / 0x6134706D), 44100 Hz, stereo, fltp, 139 kb/s (default)
    Metadata:
      handler_name    : SoundHandler
      vendor_id       : [0][0][0][0]
Stream mapping:
  Stream #0:0 -> #0:0 (mpeg4 (native) -> png (native))
Press [q] to stop, [?] for help
Output #0, image2, to 'C:\Users\Gebruiker\Documents\Visions of Chaos\Movies\00000000\%05d.png':
  Metadata:
    major_brand     : isom
    minor_version   : 512
    compatible_brands: isomiso2mp41
    encoder         : Lavf58.76.100
  Stream #0:0(und): Video: png, rgb24(pc, progressive), 512x512 [SAR 1:1 DAR 1:1], q=2-31, 200 kb/s, 60 fps, 60 tbn (default)
    Metadata:
      handler_name    : VideoHandler
      vendor_id       : [0][0][0][0]
      encoder         : Lavc58.134.100 png
frame=    1 fps=0.0 q=0.0 size=N/A time=00:00:00.00 bitrate=N/A speed=   0x    
frame=   10 fps=0.0 q=-0.0 Lsize=N/A time=00:00:00.16 bitrate=N/A speed=3.89x    

video:5512kB audio:0kB subtitle:0kB other streams:0kB global headers:0kB muxing overhead: unknown

===========================================================================
Finished in 169ms
===========================================================================

===========================================================================
Executing command line;
""C:\Program Files (x86)\Visions of Chaos\ffmpeg.exe" -i "C:\Users\Gebruiker\Documents\Visions of Chaos\Movies\VOC00003.MP4" -q:a 0 -map a "C:\Users\Gebruiker\Documents\Visions of Chaos\Movies\00000000\audio.mp3""
===========================================================================

ffmpeg version 4.4-full_build-www.gyan.dev Copyright (c) 2000-2021 the FFmpeg developers
  built with gcc 10.2.0 (Rev6, Built by MSYS2 project)
  configuration: --enable-gpl --enable-version3 --enable-static --disable-w32threads --disable-autodetect --enable-fontconfig --enable-iconv --enable-gnutls --enable-libxml2 --enable-gmp --enable-lzma --enable-libsnappy --enable-zlib --enable-librist --enable-libsrt --enable-libssh --enable-libzmq --enable-avisynth --enable-libbluray --enable-libcaca --enable-sdl2 --enable-libdav1d --enable-libzvbi --enable-librav1e --enable-libsvtav1 --enable-libwebp --enable-libx264 --enable-libx265 --enable-libxvid --enable-libaom --enable-libopenjpeg --enable-libvpx --enable-libass --enable-frei0r --enable-libfreetype --enable-libfribidi --enable-libvidstab --enable-libvmaf --enable-libzimg --enable-amf --enable-cuda-llvm --enable-cuvid --enable-ffnvcodec --enable-nvdec --enable-nvenc --enable-d3d11va --enable-dxva2 --enable-libmfx --enable-libglslang --enable-vulkan --enable-opencl --enable-libcdio --enable-libgme --enable-libmodplug --enable-libopenmpt --enable-libopencore-amrwb --enable-libmp3lame --enable-libshine --enable-libtheora --enable-libtwolame --enable-libvo-amrwbenc --enable-libilbc --enable-libgsm --enable-libopencore-amrnb --enable-libopus --enable-libspeex --enable-libvorbis --enable-ladspa --enable-libbs2b --enable-libflite --enable-libmysofa --enable-librubberband --enable-libsoxr --enable-chromaprint
  libavutil      56. 70.100 / 56. 70.100
  libavcodec     58.134.100 / 58.134.100
  libavformat    58. 76.100 / 58. 76.100
  libavdevice    58. 13.100 / 58. 13.100
  libavfilter     7.110.100 /  7.110.100
  libswscale      5.  9.100 /  5.  9.100
  libswresample   3.  9.100 /  3.  9.100
  libpostproc    55.  9.100 / 55.  9.100
Input #0, mov,mp4,m4a,3gp,3g2,mj2, from 'C:\Users\Gebruiker\Documents\Visions of Chaos\Movies\VOC00003.MP4':
  Metadata:
    major_brand     : isom
    minor_version   : 512
    compatible_brands: isomiso2mp41
    encoder         : Lavf58.76.100
  Duration: 00:00:00.19, start: 0.000000, bitrate: 38217 kb/s
  Stream #0:0(und): Video: mpeg4 (Simple Profile) (mp4v / 0x7634706D), yuv420p, 512x512 [SAR 1:1 DAR 1:1], 42417 kb/s, 60 fps, 60 tbr, 15360 tbn, 60 tbc (default)
    Metadata:
      handler_name    : VideoHandler
      vendor_id       : [0][0][0][0]
  Stream #0:1(und): Audio: aac (LC) (mp4a / 0x6134706D), 44100 Hz, stereo, fltp, 139 kb/s (default)
    Metadata:
      handler_name    : SoundHandler
      vendor_id       : [0][0][0][0]
Stream mapping:
  Stream #0:1 -> #0:0 (aac (native) -> mp3 (libmp3lame))
Press [q] to stop, [?] for help
Output #0, mp3, to 'C:\Users\Gebruiker\Documents\Visions of Chaos\Movies\00000000\audio.mp3':
  Metadata:
    major_brand     : isom
    minor_version   : 512
    compatible_brands: isomiso2mp41
    TSSE            : Lavf58.76.100
  Stream #0:0(und): Audio: mp3, 44100 Hz, stereo, fltp (default)
    Metadata:
      handler_name    : SoundHandler
      vendor_id       : [0][0][0][0]
      encoder         : Lavc58.134.100 libmp3lame
size=       0kB time=00:00:00.00 bitrate=N/A speed=   0x     size=       7kB time=00:00:00.18 bitrate= 328.6kbits/s speed=29.2x    
video:0kB audio:7kB subtitle:0kB other streams:0kB global headers:0kB muxing overhead: 4.887531%

===========================================================================
Finished in 130ms
===========================================================================

===========================================================================
HeadTrip
https://github.com/Beinabih/Pytorch-HeadTrip
Executing command line;
python -B -W ignore "C:\\Users\\Gebruiker\\AppData\\Roaming\\Visions of Chaos\\Examples\\MachineLearning\\HeadTrip\\dream.py" --config basic_conf.yaml
===========================================================================

Using cache found in depth_model\intel-isl_MiDaS_master
Using cache found in depth_model\rwightman_gen-efficientnet-pytorch_master
Using cache found in depth_model\intel-isl_MiDaS_master
Loading weights:  None
10 1.2 20 0.008
Frame 1 ...
Octave 1 ...
Traceback (most recent call last):
  File "C:\Users\Gebruiker\AppData\Roaming\Visions of Chaos\Examples\MachineLearning\HeadTrip\dream.py", line 487, in <module>
    start_dreamer(config)
  File "C:\Users\Gebruiker\AppData\Roaming\Visions of Chaos\Examples\MachineLearning\HeadTrip\dream.py", line 474, in start_dreamer
    dreamer.dream_seq()
  File "C:\Users\Gebruiker\AppData\Roaming\Visions of Chaos\Examples\MachineLearning\HeadTrip\dream.py", line 415, in dream_seq
    d_img = self.deep_dream(
  File "C:\Users\Gebruiker\AppData\Roaming\Visions of Chaos\Examples\MachineLearning\HeadTrip\dream.py", line 298, in deep_dream
    dreamed_image = self.dream(
  File "C:\Users\Gebruiker\AppData\Roaming\Visions of Chaos\Examples\MachineLearning\HeadTrip\dream.py", line 226, in dream
    image = self.forward(model, image, n, d_img, mask)
  File "C:\Users\Gebruiker\AppData\Roaming\Visions of Chaos\Examples\MachineLearning\HeadTrip\dream.py", line 139, in forward
    out = model(image)
  File "C:\python\lib\site-packages\torch\nn\modules\module.py", line 1051, in _call_impl
    return forward_call(*input, **kwargs)
  File "C:\python\lib\site-packages\torchvision\models\alexnet.py", line 46, in forward
    x = self.features(x)
  File "C:\python\lib\site-packages\torch\nn\modules\module.py", line 1051, in _call_impl
    return forward_call(*input, **kwargs)
  File "C:\python\lib\site-packages\torch\nn\modules\container.py", line 139, in forward
    input = module(input)
  File "C:\python\lib\site-packages\torch\nn\modules\module.py", line 1051, in _call_impl
    return forward_call(*input, **kwargs)
  File "C:\python\lib\site-packages\torch\nn\modules\pooling.py", line 162, in forward
    return F.max_pool2d(input, self.kernel_size, self.stride,
  File "C:\python\lib\site-packages\torch\_jit_internal.py", line 405, in fn
    return if_false(*args, **kwargs)
  File "C:\python\lib\site-packages\torch\nn\functional.py", line 718, in _max_pool2d
    return torch.max_pool2d(input, kernel_size, stride, padding, dilation, ceil_mode)
RuntimeError: Given input size: (256x1x1). Calculated output size: (256x0x0). Output size is too small

===========================================================================
Finished in 05s343ms
===========================================================================

===========================================================================
Executing command line;
""C:\Program Files (x86)\Visions of Chaos\ffmpeg.exe" -framerate 25 -start_number 1 -i "C:\Users\Gebruiker\Documents\Visions of Chaos\Movies\00000001\%05d.png" -c:v libx264 -preset:v veryslow -profile:v high -crf 15 -pix_fmt yuvj420p -an -y "C:\Users\Gebruiker\Documents\Visions of Chaos\Movies\00000000\VOC00001.MP4""
===========================================================================

ffmpeg version 4.4-full_build-www.gyan.dev Copyright (c) 2000-2021 the FFmpeg developers
  built with gcc 10.2.0 (Rev6, Built by MSYS2 project)
  configuration: --enable-gpl --enable-version3 --enable-static --disable-w32threads --disable-autodetect --enable-fontconfig --enable-iconv --enable-gnutls --enable-libxml2 --enable-gmp --enable-lzma --enable-libsnappy --enable-zlib --enable-librist --enable-libsrt --enable-libssh --enable-libzmq --enable-avisynth --enable-libbluray --enable-libcaca --enable-sdl2 --enable-libdav1d --enable-libzvbi --enable-librav1e --enable-libsvtav1 --enable-libwebp --enable-libx264 --enable-libx265 --enable-libxvid --enable-libaom --enable-libopenjpeg --enable-libvpx --enable-libass --enable-frei0r --enable-libfreetype --enable-libfribidi --enable-libvidstab --enable-libvmaf --enable-libzimg --enable-amf --enable-cuda-llvm --enable-cuvid --enable-ffnvcodec --enable-nvdec --enable-nvenc --enable-d3d11va --enable-dxva2 --enable-libmfx --enable-libglslang --enable-vulkan --enable-opencl --enable-libcdio --enable-libgme --enable-libmodplug --enable-libopenmpt --enable-libopencore-amrwb --enable-libmp3lame --enable-libshine --enable-libtheora --enable-libtwolame --enable-libvo-amrwbenc --enable-libilbc --enable-libgsm --enable-libopencore-amrnb --enable-libopus --enable-libspeex --enable-libvorbis --enable-ladspa --enable-libbs2b --enable-libflite --enable-libmysofa --enable-librubberband --enable-libsoxr --enable-chromaprint
  libavutil      56. 70.100 / 56. 70.100
  libavcodec     58.134.100 / 58.134.100
  libavformat    58. 76.100 / 58. 76.100
  libavdevice    58. 13.100 / 58. 13.100
  libavfilter     7.110.100 /  7.110.100
  libswscale      5.  9.100 /  5.  9.100
  libswresample   3.  9.100 /  3.  9.100
  libpostproc    55.  9.100 / 55.  9.100
[image2 @ 0000024317caf900] Could find no file with path 'C:\Users\Gebruiker\Documents\Visions of Chaos\Movies\00000001\%05d.png' and index in the range 1-5
C:\Users\Gebruiker\Documents\Visions of Chaos\Movies\00000001\%05d.png: No such file or directory

===========================================================================
Finished in 120ms
===========================================================================

===========================================================================
Executing command line;
""C:\Program Files (x86)\Visions of Chaos\ffmpeg.exe" -i "C:\Users\Gebruiker\Documents\Visions of Chaos\Movies\00000000\VOC00001.MP4" -i "C:\Users\Gebruiker\Documents\Visions of Chaos\Movies\00000000\audio.mp3" -c:v copy -c:a aac -strict experimental -map 0:v:0 -map 1:a:0 "C:\Users\Gebruiker\Documents\Visions of Chaos\Movies\00000000\VOC00003.HeadTrip.mp4""
===========================================================================

ffmpeg version 4.4-full_build-www.gyan.dev Copyright (c) 2000-2021 the FFmpeg developers
  built with gcc 10.2.0 (Rev6, Built by MSYS2 project)
  configuration: --enable-gpl --enable-version3 --enable-static --disable-w32threads --disable-autodetect --enable-fontconfig --enable-iconv --enable-gnutls --enable-libxml2 --enable-gmp --enable-lzma --enable-libsnappy --enable-zlib --enable-librist --enable-libsrt --enable-libssh --enable-libzmq --enable-avisynth --enable-libbluray --enable-libcaca --enable-sdl2 --enable-libdav1d --enable-libzvbi --enable-librav1e --enable-libsvtav1 --enable-libwebp --enable-libx264 --enable-libx265 --enable-libxvid --enable-libaom --enable-libopenjpeg --enable-libvpx --enable-libass --enable-frei0r --enable-libfreetype --enable-libfribidi --enable-libvidstab --enable-libvmaf --enable-libzimg --enable-amf --enable-cuda-llvm --enable-cuvid --enable-ffnvcodec --enable-nvdec --enable-nvenc --enable-d3d11va --enable-dxva2 --enable-libmfx --enable-libglslang --enable-vulkan --enable-opencl --enable-libcdio --enable-libgme --enable-libmodplug --enable-libopenmpt --enable-libopencore-amrwb --enable-libmp3lame --enable-libshine --enable-libtheora --enable-libtwolame --enable-libvo-amrwbenc --enable-libilbc --enable-libgsm --enable-libopencore-amrnb --enable-libopus --enable-libspeex --enable-libvorbis --enable-ladspa --enable-libbs2b --enable-libflite --enable-libmysofa --enable-librubberband --enable-libsoxr --enable-chromaprint
  libavutil      56. 70.100 / 56. 70.100
  libavcodec     58.134.100 / 58.134.100
  libavformat    58. 76.100 / 58. 76.100
  libavdevice    58. 13.100 / 58. 13.100
  libavfilter     7.110.100 /  7.110.100
  libswscale      5.  9.100 /  5.  9.100
  libswresample   3.  9.100 /  3.  9.100
  libpostproc    55.  9.100 / 55.  9.100
C:\Users\Gebruiker\Documents\Visions of Chaos\Movies\00000000\VOC00001.MP4: No such file or directory

===========================================================================
Finished in 121ms
===========================================================================


Total processing time was 05s978ms